CHD高清论坛

 找回密码
 立即注册

QQ登录

只需一步,快速开始

搜索
热搜: 活动 交友 discuz
查看: 268|回复: 30
打印 上一主题 下一主题

[REMUX] 织物/夺命霓裳.In.Fabric.2018.1080p.BluRay.REMUX.AVC.DTS-HD.MA.5.1-FGT

[复制链接]
跳转到指定楼层
楼主
发表于 6 天前 | 只看该作者 回帖奖励 |倒序浏览 |阅读模式


◎译  名 织物 / 夺命霓裳(港) / 幸运衣 / 结构 / 霓裳鬼影(台)
◎片  名 In Fabric
◎年  代 2018
◎产  地 英国
◎类  别 喜剧 / 恐怖
◎语  言 英语 / 法语
◎上映日期 2018-09-13(多伦多电影节) / 2019-06-28(英国)
◎IMDb评分 7.0/10 from 1237 users
◎IMDb链接
◎豆瓣评分 6.2/10 from 77 users
◎豆瓣链接 
◎片  长 118分钟
◎导  演 彼得·斯崔克兰德 Peter Strickland
◎编  剧 彼得·斯崔克兰德 Peter Strickland
◎主  演 格温多兰·克里斯蒂 Gwendoline Christie
      西瑟·巴比特·科努德森 Sidse Babett Knudsen
      卡罗琳·凯兹 Caroline Catz
      朱利安·巴拉特 Julian Barratt
      玛丽安娜·琼-巴普蒂斯特 Marianne Jean-Baptiste
      海莉·斯奎尔斯 Hayley Squires
      里奥·比尔 Leo Bill
      理查德·布雷默 Richard Bremmer
      史蒂夫·奥拉姆 Steve Oram
      卡尔·法雷尔 Karl Farrer
      尤吉尼亚·克鲁索 Eugenia Caruso
      苏珊娜·卡佩拉罗 Susanna Cappellaro
      杰甘·艾伊 Jaygann Ayeh
      萨拉·德 Sara Dee
      安东尼奥·曼奇诺 Antonio Mancino
      Simon Manyonda
      Gavin Brocker
      Derek Barr
      Barry Adamson


◎标  签 恐怖 | 英国 | 惊悚 | 2018 | 英国电影 | 电影 | PeterStrickland | 英國

◎简  介

  中年银行职员Sheila Woolchapel在当地的百货公司买入了一件漂亮的红裙子后,面对原本吃力不讨好的工作、沉默寡言的儿子以及噩梦般的女友时,感觉士气大增。这条裙子甚至让她在单身专栏遇见喜欢的男人。但当她将裙子放入洗衣机那瞬间,由裙子引发的沉重代价开始了。神秘的售货员Miss Luckmoore拒绝收回裙子,而更可怕的是,这条裙子是无法毁灭的。

◎获奖情况

  第66届圣塞巴斯蒂安国际电影节(2018)
  金贝壳奖(提名) 彼得·斯崔克兰德
Video
ID : 1
Format : AVC
Format/Info : Advanced Video Codec
Format profile : High@L4.1
Format settings : CABAC / 4 Ref Frames
Format settings, CABAC : Yes
Format settings, Reference frames : 4 frames
Codec ID : V_MPEG4/ISO/AVC
Duration : 1 h 58 min
Bit rate mode : Variable
Bit rate : 26.6 Mb/s
Maximum bit rate : 35.0 Mb/s
Width : 1 920 pixels
Height : 1 080 pixels
Display aspect ratio : 16:9
Frame rate mode : Constant
Frame rate : 24.000 FPS
Color space : YUV
Chroma subsampling : 4:2:0
Bit depth : 8 bits
Scan type : Progressive
Bits/(Pixel*Frame) : 0.534
Stream size : 22.0 GiB (72%)
Title : In.Fabric.2018.1080p.BluRay.REMUX.AVC.DTS-HD.MA.5.1-FGT
Language : English
Default : No
Forced : No

Audio #1
ID : 2
Format : DTS XLL
Format/Info : Digital Theater Systems
Commercial name : DTS-HD Master Audio
Codec ID : A_DTS
Duration : 1 h 58 min
Bit rate mode : Variable
Bit rate : 3 262 kb/s
Channel(s) : 6 channels
Channel layout : C L R Ls Rs LFE
Sampling rate : 48.0 kHz
Frame rate : 93.750 FPS (512 SPF)
Bit depth : 24 bits
Compression mode : Lossless
Stream size : 2.70 GiB (9%)
Title : In.Fabric.2018.1080p.BluRay.REMUX.AVC.DTS-HD.MA.5.1-FGT
Language : English
Default : Yes
Forced : No

Audio #2
ID : 3
Format : PCM
Format settings : Little / Signed
Codec ID : A_PCM/INT/LIT
Duration : 1 h 58 min
Bit rate mode : Constant
Bit rate : 2 304 kb/s
Channel(s) : 2 channels
Sampling rate : 48.0 kHz
Frame rate : 30.000 FPS (1600 SPF)
Bit depth : 24 bits
Stream size : 1.91 GiB (6%)
Title : In.Fabric.2018.1080p.BluRay.REMUX.AVC.DTS-HD.MA.5.1-FGT
Language : English
Default : No
Forced : No

Audio #3
ID : 4
Format : PCM
Format settings : Little / Signed
Codec ID : A_PCM/INT/LIT
Duration : 1 h 58 min
Bit rate mode : Constant
Bit rate : 2 304 kb/s
Channel(s) : 2 channels
Sampling rate : 48.0 kHz
Frame rate : 30.000 FPS (1600 SPF)
Bit depth : 24 bits
Stream size : 1.91 GiB (6%)
Title : In.Fabric.2018.1080p.BluRay.REMUX.AVC.DTS-HD.MA.5.1-FGT
Language : English
Default : No
Forced : No

Audio #4
ID : 5
Format : PCM
Format settings : Little / Signed
Codec ID : A_PCM/INT/LIT
Duration : 1 h 58 min
Bit rate mode : Constant
Bit rate : 2 304 kb/s
Channel(s) : 2 channels
Sampling rate : 48.0 kHz
Frame rate : 30.000 FPS (1600 SPF)
Bit depth : 24 bits
Stream size : 1.91 GiB (6%)
Title : In.Fabric.2018.1080p.BluRay.REMUX.AVC.DTS-HD.MA.5.1-FGT
Language : English
Default : No
Forced : No

Text #1
ID : 6
Format : UTF-8
Codec ID : S_TEXT/UTF8
Codec ID/Info : UTF-8 Plain Text
Duration : 1 h 54 min
Bit rate : 46 b/s
Count of elements : 1005
Stream size : 39.3 KiB (0%)
Title : English-SRT
Language : English
Default : Yes
Forced : No

Text #2
ID : 7
Format : UTF-8
Codec ID : S_TEXT/UTF8
Codec ID/Info : UTF-8 Plain Text
Duration : 1 h 56 min
Bit rate : 54 b/s
Count of elements : 1209
Stream size : 46.7 KiB (0%)
Title : English-SDH-SRT
Language : English
Default : No
Forced : No

Text #3
ID : 8
Format : PGS
Muxing mode : zlib
Codec ID : S_HDMV/PGS
Codec ID/Info : Picture based subtitle format used on BDs/HD-DVDs
Duration : 1 h 56 min
Bit rate : 31.5 kb/s
Count of elements : 2418
Stream size : 26.2 MiB (0%)
Title : English-PGS
Language : English
Default : No
Forced : No

Menu
00:00:00.000 : en:Chapter 01
00:07:20.583 : en:Chapter 02
00:17:52.958 : en:Chapter 03
00:24:31.625 : en:Chapter 04
00:37:39.875 : en:Chapter 05
00:57:11.750 : en:Chapter 06
01:05:46.916 : en:Chapter 07
01:14:55.625 : en:Chapter 08
01:27:47.791 : en:Chapter 09
01:39:48.333 : en:Chapter 10
01:46:39.333 : en:Chapter 11
01:53:46.958 : en:Chapter 12






回复下载:





游客,如果您要查看本帖隐藏内容请回复


本帖子中包含更多资源

您需要 登录 才可以下载或查看,没有帐号?立即注册

x
分享到:  QQ好友和群QQ好友和群 QQ空间QQ空间 腾讯微博腾讯微博 腾讯朋友腾讯朋友
收藏收藏
沙发
发表于 6 天前 | 只看该作者
好东西,谢谢分享!!!!!!!!!!!!!!!!!!!!!!!!!!!!!!!!
板凳
发表于 6 天前 | 只看该作者
这个看着就不错
地板
发表于 6 天前 | 只看该作者

感谢楼主辛苦分享!!!
5#
发表于 6 天前 | 只看该作者
谢谢楼主分享
6#
发表于 6 天前 | 只看该作者
楼主发帖辛苦了,感谢楼主无私的分享!永远支持高清论坛!
7#
发表于 6 天前 | 只看该作者
衷心感谢楼主分享精彩电影!
8#
发表于 6 天前 | 只看该作者
谢谢楼主分享
9#
发表于 6 天前 | 只看该作者
感谢楼主辛苦分享!!!
10#
发表于 6 天前 | 只看该作者
感谢楼主,感谢
您需要登录后才可以回帖 登录 | 立即注册

本版积分规则

快速回复 返回顶部 返回列表
北京pk拾专家杀号 北京pk拾技巧与规律 赛车pk拾开奖直播 北京pk拾开奖走势图 北京pk拾带玩骗局 北京赛车pk拾买法技巧 北京赛车pk拾冠军杀3码北京赛车pk拾稳赢计划 北京赛车pk拾掌上赢家 北京pk拾网址 北京赛车pk拾冠军杀3码三分pk拾开奖直播现场