CHD高清论坛

 找回密码
 立即注册

QQ登录

只需一步,快速开始

搜索
热搜: 活动 交友 discuz
查看: 376|回复: 47
打印 上一主题 下一主题

[REMUX] 淪落人。Still。Human。2018。CHINESE。1080p。BluRay。REMUX。AVC。TrueHD。5。1-FGT

[复制链接]
跳转到指定楼层
楼主
发表于 7 天前 | 只看该作者 回帖奖励 |倒序浏览 |阅读模式


◎译  名 沦落人 / Still Human
◎片  名 淪落人
◎年  代 2018
◎产  地 香港
◎类  别 剧情
◎语  言 粤语
◎上映日期 2018-11-08(台湾金马奖) / 2019-04-11(香港)
◎IMDb评分 7.4/10 from 360 users
◎IMDb链接
◎豆瓣评分 8.2/10 from 2481 users
◎豆瓣链接 
◎片  长 112分钟
◎导  演 陈小娟 Oliver Chan
◎编  剧 陈小娟 Oliver Chan
◎主  演 黄秋生 Anthony Wong Chau-Sang
      Crisel Consunji
      叶童 Cecilia Yip
      李灿森 Sam Lee
      黄定谦 Himmy Wong


◎标  签 黄秋生 | 香港 | 香港电影 | 剧情 | 香港電影 | 人生 | 2018 | 李灿森

◎简  介

  这是关于两个沦落香港的最低下层的人的故事。中年男子汉昌荣(黄秋生饰)因意外受伤瘫痪后妻离子散,他认为人生再没有值得期望的东西,而自己亦不值得拥有任何东西。年轻菲佣Evelyn(Crisel Consunji饰)因为现实的原因,成为了一个寄人篱下的工人,放弃了成为摄影师的梦想。那一个夏天,这样的两个陌生人相遇相识,感情在他们的主仆关系中发芽,然而盛放的,却是灵魂与灵魂之间的尊重和爱。他们一起经历的春夏秋冬,令他们学习到底要怎样面对人生的四季。

◎获奖情况

  第38届香港电影金像奖(2019)
  最佳电影(提名)
  最佳导演(提名) 陈小娟
  最佳编剧(提名) 陈小娟
  最佳男主角 黄秋生
  最佳女主角(提名) 姬素·孔尚治
  最佳男配角(提名) 李灿森
  最佳新演员 姬素·孔尚治
  新晋导演 陈小娟

  第13届亚洲电影大奖(2019)
  最佳新导演 陈小娟
Video
ID : 1
Format : AVC
Format/Info : Advanced Video Codec
Format profile : High@L4.1
Format settings : CABAC / 4 Ref Frames
Format settings, CABAC : Yes
Format settings, Reference frames : 4 frames
Codec ID : V_MPEG4/ISO/AVC
Duration : 1 h 51 min
Bit rate mode : Variable
Bit rate : 20.9 Mb/s
Maximum bit rate : 21.5 Mb/s
Width : 1 920 pixels
Height : 1 080 pixels
Display aspect ratio : 16:9
Frame rate mode : Constant
Frame rate : 24.000 FPS
Color space : YUV
Chroma subsampling : 4:2:0
Bit depth : 8 bits
Scan type : Progressive
Bits/(Pixel*Frame) : 0.420
Stream size : 16.3 GiB (87%)
Title : Still.Human.2018.CHINESE.1080p.BluRay.REMUX.AVC.TrueHD.5.1-FGT
Language : English
Default : No
Forced : No

Audio #1
ID : 2
Format : MLP FBA
Format/Info : Meridian Lossless Packing FBA
Commercial name : Dolby TrueHD
Codec ID : A_TRUEHD
Duration : 1 h 51 min
Bit rate mode : Variable
Bit rate : 2 616 kb/s
Maximum bit rate : 3 324 kb/s
Channel(s) : 6 channels
Channel layout : L R C LFE Ls Rs
Sampling rate : 96.0 kHz
Frame rate : 1 200.000 FPS (80 SPF)
Compression mode : Lossless
Stream size : 2.04 GiB (11%)
Title : Still.Human.2018.CHINESE.1080p.BluRay.REMUX.AVC.TrueHD.5.1-FGT
Language : Chinese
Default : Yes
Forced : No

Audio #2
ID : 3
Format : AC-3
Format/Info : Audio Coding 3
Commercial name : Dolby Digital
Codec ID : A_AC3
Duration : 1 h 51 min
Bit rate mode : Constant
Bit rate : 384 kb/s
Channel(s) : 2 channels
Channel layout : L R
Sampling rate : 48.0 kHz
Frame rate : 31.250 FPS (1536 SPF)
Bit depth : 16 bits
Compression mode : Lossy
Stream size : 307 MiB (2%)
Title : Still.Human.2018.CHINESE.1080p.BluRay.REMUX.AVC.TrueHD.5.1-FGT
Language : Chinese
Service kind : Complete Main
Default : No
Forced : No

Text #1
ID : 4
Format : PGS
Muxing mode : zlib
Codec ID : S_HDMV/PGS
Codec ID/Info : Picture based subtitle format used on BDs/HD-DVDs
Duration : 1 h 45 min
Bit rate : 27.9 kb/s
Count of elements : 1961
Stream size : 21.1 MiB (0%)
Title : English-PGS
Language : English
Default : Yes
Forced : No

Text #2
ID : 5
Format : PGS
Muxing mode : zlib
Codec ID : S_HDMV/PGS
Codec ID/Info : Picture based subtitle format used on BDs/HD-DVDs
Duration : 1 h 45 min
Bit rate : 25.7 kb/s
Count of elements : 1961
Stream size : 19.4 MiB (0%)
Title : Chinese-PGS
Language : Chinese
Default : No
Forced : No

Menu
00:00:00.000 : en:Chapter 01
00:05:34.791 : en:Chapter 02
00:09:23.125 : en:Chapter 03
00:15:54.458 : en:Chapter 04
00:20:04.333 : en:Chapter 05
00:25:01.583 : en:Chapter 06
00:32:30.166 : en:Chapter 07
00:38:39.958 : en:Chapter 08
00:43:36.833 : en:Chapter 09
00:48:17.125 : en:Chapter 10
00:54:52.458 : en:Chapter 11
00:58:32.833 : en:Chapter 12
01:03:50.291 : en:Chapter 13
01:09:50.250 : en:Chapter 14
01:14:01.541 : en:Chapter 15
01:19:46.666 : en:Chapter 16
01:24:43.708 : en:Chapter 17
01:30:01.250 : en:Chapter 18
01:39:51.708 : en:Chapter 19
01:48:53.875 : en:Chapter 20






回复下载:





游客,如果您要查看本帖隐藏内容请回复


本帖子中包含更多资源

您需要 登录 才可以下载或查看,没有帐号?立即注册

x
分享到:  QQ好友和群QQ好友和群 QQ空间QQ空间 腾讯微博腾讯微博 腾讯朋友腾讯朋友
收藏收藏
沙发
发表于 7 天前 | 只看该作者
好东西,谢谢分享!!!!!!!!!!!!!!!!!!!!!!!!!!!!!!!!
板凳
发表于 7 天前 | 只看该作者
感谢楼主辛苦分享!!!
地板
发表于 7 天前 | 只看该作者
楼主发帖辛苦了,感谢楼主无私的分享!永远支持高清论坛!
5#
发表于 7 天前 | 只看该作者
衷心感谢楼主分享精彩电影!
6#
发表于 7 天前 | 只看该作者
感谢楼主分享
7#
发表于 7 天前 | 只看该作者
收一个看看
8#
发表于 7 天前 | 只看该作者
收一个看看
9#
发表于 7 天前 | 只看该作者
感谢楼主分享好资源
10#
发表于 7 天前 | 只看该作者
谢谢楼主分享
您需要登录后才可以回帖 登录 | 立即注册

本版积分规则

快速回复 返回顶部 返回列表
北京pk拾稳赚技巧差价 三分pk拾怎么玩 北京赛车pk拾买法技巧 聚星德国pk拾高手 北京赛车pk拾下注官网 北京pk拾6码最稳计划 北京pk拾定位冠军计划 北京pk拾冠军大小计划 手机北京pk拾助赢软件 北京pk拾