CHD高清论坛

 找回密码
 立即注册

QQ登录

只需一步,快速开始

搜索
热搜: 活动 交友 discuz
查看: 297|回复: 27
打印 上一主题 下一主题

[REMUX] 无上婚宴.Top.End.Wedding.2019.1080p.BluRay.REMUX.AVC.DTS-HD.MA.5.1-FGT

[复制链接]
跳转到指定楼层
楼主
发表于 7 天前 | 只看该作者 回帖奖励 |倒序浏览 |阅读模式


◎译  名 无上婚宴 / Top-End Wedding
◎片  名 Top End Wedding
◎年  代 2019
◎产  地 澳大利亚
◎类  别 喜剧
◎语  言 英语
◎上映日期 2019-01-30(圣丹斯电影节)
◎IMDb评分 7.1/10 from 385 users
◎IMDb链接
◎豆瓣评分 0/10 from 0 users
◎豆瓣链接 
◎导  演 韦恩·布莱尔 Wayne Blair
◎编  剧 Miranda Tapsell / Joshua Tyler
◎主  演 格威利姆·李 Gwilym Lee
      凯瑞·福克斯 Kerry Fox
      Miranda Tapsell
      Huw Higginson
      Travis Jeffery
      Shari Sebbens
      Ursula Yovich
      Elaine Crombie
      Matt Crook
      Atmiya Patel


◎标  签 澳洲 | 喜剧 | cinema | Cinema_2019 | 2019Sundance | 2019

◎简  介

  暂无相关剧情介绍
Video
ID : 1
Format : AVC
Format/Info : Advanced Video Codec
Format profile : High@L4.1
Format settings : CABAC / 4 Ref Frames
Format settings, CABAC : Yes
Format settings, Reference frames : 4 frames
Codec ID : V_MPEG4/ISO/AVC
Duration : 1 h 41 min
Bit rate mode : Variable
Bit rate : 25.4 Mb/s
Maximum bit rate : 38.0 Mb/s
Width : 1 920 pixels
Height : 1 080 pixels
Display aspect ratio : 16:9
Frame rate mode : Constant
Frame rate : 24.000 FPS
Color space : YUV
Chroma subsampling : 4:2:0
Bit depth : 8 bits
Scan type : Progressive
Bits/(Pixel*Frame) : 0.511
Stream size : 18.1 GiB (91%)
Title : Top.End.Wedding.2019.1080p.BluRay.REMUX.AVC.DTS-HD.MA.5.1-FGT
Language : English
Default : No
Forced : No

Audio #1
ID : 2
Format : DTS XLL
Format/Info : Digital Theater Systems
Commercial name : DTS-HD Master Audio
Codec ID : A_DTS
Duration : 1 h 41 min
Bit rate mode : Variable
Bit rate : 1 808 kb/s
Channel(s) : 6 channels
Channel layout : C L R Ls Rs LFE
Sampling rate : 48.0 kHz
Frame rate : 93.750 FPS (512 SPF)
Bit depth : 16 bits
Compression mode : Lossless
Stream size : 1.29 GiB (6%)
Title : Top.End.Wedding.2019.1080p.BluRay.REMUX.AVC.DTS-HD.MA.5.1-FGT
Language : English
Default : Yes
Forced : No

Audio #2
ID : 3
Format : AC-3
Format/Info : Audio Coding 3
Commercial name : Dolby Digital
Codec ID : A_AC3
Duration : 1 h 41 min
Bit rate mode : Constant
Bit rate : 640 kb/s
Channel(s) : 2 channels
Channel layout : L R
Sampling rate : 48.0 kHz
Frame rate : 31.250 FPS (1536 SPF)
Bit depth : 16 bits
Compression mode : Lossy
Stream size : 466 MiB (2%)
Title : Top.End.Wedding.2019.1080p.BluRay.REMUX.AVC.DTS-HD.MA.5.1-FGT
Language : English
Service kind : Complete Main
Default : No
Forced : No

Text
ID : 4
Format : PGS
Muxing mode : zlib
Codec ID : S_HDMV/PGS
Codec ID/Info : Picture based subtitle format used on BDs/HD-DVDs
Duration : 1 h 39 min
Bit rate : 35.5 kb/s
Count of elements : 2052
Stream size : 25.2 MiB (0%)
Title : English-PGS
Language : English
Default : Yes
Forced : No

Menu
00:00:00.000 : en:Chapter 01
00:05:50.208 : en:Chapter 02
00:13:15.958 : en:Chapter 03
00:19:35.041 : en:Chapter 04
00:27:10.666 : en:Chapter 05
00:33:18.041 : en:Chapter 06
00:39:59.750 : en:Chapter 07
00:45:17.500 : en:Chapter 08
00:50:07.791 : en:Chapter 09
00:56:39.125 : en:Chapter 10
01:03:19.416 : en:Chapter 11
01:07:54.791 : en:Chapter 12
01:14:48.791 : en:Chapter 13
01:21:05.166 : en:Chapter 14
01:25:57.083 : en:Chapter 15
01:35:50.708 : en:Chapter 16






回复下载:





游客,如果您要查看本帖隐藏内容请回复


本帖子中包含更多资源

您需要 登录 才可以下载或查看,没有帐号?立即注册

x
分享到:  QQ好友和群QQ好友和群 QQ空间QQ空间 腾讯微博腾讯微博 腾讯朋友腾讯朋友
收藏收藏
板凳
发表于 7 天前 | 只看该作者
好东西,谢谢分享!!!!!!!!!!!!!!!!!!!!!!!!!!!!!!!!
地板
发表于 7 天前 | 只看该作者
感谢楼主辛苦分享!!!
5#
发表于 7 天前 | 只看该作者
楼主辛苦了,多谢楼主分享。
6#
发表于 7 天前 | 只看该作者
楼主发帖辛苦了,感谢楼主无私的分享!永远支持高清论坛!
7#
发表于 7 天前 | 只看该作者
衷心感谢楼主分享精彩电影!
8#
发表于 7 天前 | 只看该作者
感谢楼主分享
9#
发表于 7 天前 | 只看该作者
感谢楼主发帖
10#
发表于 7 天前 | 只看该作者
多谢楼主分享
您需要登录后才可以回帖 登录 | 立即注册

本版积分规则

快速回复 返回顶部 返回列表
揭秘北京赛车pk拾骗局 德国赛车pk拾出号规律 北京pk拾赛是骗局吗 北京福彩pk拾走势图 北京pk拾人工精准计划 北京pk拾网站是骗局吗 北京赛车pk拾统计 极速pk拾如何赚钱 澳门pk拾走势图 北京pk拾全天精准计划