CHD高清论坛

 找回密码
 立即注册

QQ登录

只需一步,快速开始

搜索
热搜: 活动 交友 discuz
查看: 674|回复: 148
打印 上一主题 下一主题

[动作片] 女间谍。Spy。2015。1080p。BluRay。x264-SPARKS

  [复制链接]
跳转到指定楼层
楼主
发表于 3 天前 | 只看该作者 回帖奖励 |倒序浏览 |阅读模式


◎译  名 女间谍 / Susan Cooper / 凸务MADAM (港) / 密探 / 苏珊·库珀 / 麻辣贱谍(台)
◎片  名 Spy
◎年  代 2015
◎产  地 美国
◎类  别 喜剧 / 动作 / 犯罪
◎语  言 英语 / 法语 / 意大利语 / 德语
◎上映日期 2015-05-21(澳大利亚) / 2015-06-05(美国)
◎IMDb评分 7.0/10 from 215895 users
◎IMDb链接
◎豆瓣评分 7.5/10 from 111310 users
◎豆瓣链接 
◎片  长 120分钟
◎导  演 保罗·费格 Paul Feig
◎编  剧 保罗·费格 Paul Feig
◎主  演 梅丽莎·麦卡西 Melissa McCarthy
      杰森·斯坦森 Jason Statham
      裘德·洛 Jude Law
      萝丝·拜恩 Rose Byrne
      莫蕾娜·巴卡林 Morena Baccarin
      李威尹 Will Yun Lee
      艾莉森·珍妮 Allison Janney
      鲍比·坎纳瓦尔 Bobby Cannavale
      50分 50 Cent
      彼得·塞拉菲诺威茨 Peter Serafinowicz
      卡洛斯·庞丝 Carlos Ponce
      扎克·伍兹 Zach Woods
      杰西卡·查芬 Jessica Chaffin
      米兰达·哈特 Miranda Hart
      Alicia Vela-Bailey
      娜吉丝·法克利 Nargis Fakhri


◎标  签 喜剧 | 美国 | 特工 | 动作 | 杰森·斯坦森 | 2015 | 裘德·洛 | 梅丽莎·麦卡西

◎简  介

  苏珊(梅丽莎·麦卡西 Melissa McCarthy 饰)是中情局专门协助处理危险任务却不为人知的后勤人员,她的搭档布莱德利(裘德·洛 Jude Law 饰)在一次行动中突然失踪,也波及另一位顶尖中情局特工瑞克(杰森·斯坦森 Jason Statham 饰 )的安危。为了找出搭档的下落,拯救这个岌岌可危的世界,苏珊自愿充当卧底,混进史上最危险的军火商集团,试图查出事情的真相,并与蛇蝎美女头目(萝丝·拜恩 Rose Byrne 饰)斗智斗勇。然而在英勇救难的惊险过程中,苏珊发现事情远没有她想象的那么简单……

◎获奖情况

  第73届金球奖(2016)
  电影类 最佳音乐/喜剧片(提名)
  电影类 音乐/喜剧片最佳女主角(提名) 梅丽莎·麦卡西

  第21届美国评论家选择电影奖(2016)
  最佳喜剧片(提名)
  喜剧片最佳男主角(提名) 杰森·斯坦森
  喜剧片最佳女主角(提名) 梅丽莎·麦卡西

  第17届美国青少年选择奖(2015)
  最佳电影反派(提名) 萝丝·拜恩
  Choice Movie: Hissy Fit(提名) 梅丽莎·麦卡西
  最佳暑期电影(提名)
  最佳暑期电影女演员(提名) 梅丽莎·麦卡西

  第2届豆瓣电影年度榜单(2015)
  最受关注的非院线电影(提名)

  第6届豆瓣电影鑫像奖(2016)
  鑫豆单元 最佳喜剧片(提名)
Video
ID : 1
Format : AVC
Format/Info : Advanced Video Codec
Format profile : High@L4.1
Format settings : CABAC / 5 Ref Frames
Format settings, CABAC : Yes
Format settings, Reference frames : 5 frames
Codec ID : V_MPEG4/ISO/AVC
Duration : 2 h 10 min
Bit rate : 9 290 kb/s
Width : 1 920 pixels
Height : 808 pixels
Display aspect ratio : 2.40:1
Frame rate mode : Constant
Frame rate : 23.976 FPS
Color space : YUV
Chroma subsampling : 4:2:0
Bit depth : 8 bits
Scan type : Progressive
Bits/(Pixel*Frame) : 0.250
Stream size : 8.46 GiB (86%)
Writing library : x264 core 148 r2597 e86f3a1
Encoding settings : cabac=1 / ref=5 / deblock=1:0:0 / analyse=0x3:0x133 / me=umh / subme=7 / psy=1 / psy_rd=1.00:0.00 / mixed_ref=1 / me_range=16 / chroma_me=1 / trellis=1 / 8x8dct=1 / cqm=0 / deadzone=21,11 / fast_pskip=0 / chroma_qp_offset=-2 / threads=18 / lookahead_threads=3 / sliced_threads=0 / nr=0 / decimate=1 / interlaced=0 / bluray_compat=0 / constrained_intra=0 / bframes=3 / b_pyramid=2 / b_adapt=1 / b_bias=0 / direct=1 / weightb=1 / open_gop=0 / weightp=2 / keyint=250 / keyint_min=23 / scenecut=40 / intra_refresh=0 / rc_lookahead=40 / rc=2pass / mbtree=1 / bitrate=9290 / ratetol=1.0 / qcomp=0.60 / qpmin=0 / qpmax=69 / qpstep=4 / cplxblur=20.0 / qblur=0.5 / ip_ratio=1.40 / aq=1:1.00
Language : English
Default : Yes
Forced : No

Audio
ID : 2
Format : DTS ES
Format/Info : Digital Theater Systems
Commercial name : DTS-ES Matrix
Codec ID : A_DTS
Duration : 2 h 10 min
Bit rate mode : Constant
Bit rate : 1 509 kb/s
Channel(s) : 6 channels
Channel(s)_Original : 7 channels
Channel layout : C L R Ls Rs Cb LFE
Sampling rate : 48.0 kHz
Frame rate : 93.750 FPS (512 SPF)
Bit depth : 24 bits
Compression mode : Lossy
Stream size : 1.37 GiB (14%)
Language : English
Default : Yes
Forced : No

Text
ID : 3
Format : UTF-8
Codec ID : S_TEXT/UTF8
Codec ID/Info : UTF-8 Plain Text
Duration : 26 s 193 ms
Bit rate : 45 b/s
Count of elements : 8
Stream size : 149 Bytes (0%)
Title : English-Forced
Language : English
Default : Yes
Forced : Yes

Menu
00:00:00.000 : en:00:00:00.000
00:03:38.593 : en:00:03:38.593
00:07:46.132 : en:00:07:46.132
00:10:08.691 : en:00:10:08.691
00:14:11.142 : en:00:14:11.142
00:15:42.859 : en:00:15:42.859
00:20:54.378 : en:00:20:54.378
00:23:25.863 : en:00:23:25.863
00:27:59.928 : en:00:27:59.928
00:31:11.077 : en:00:31:11.077
00:34:24.062 : en:00:34:24.062
00:39:30.576 : en:00:39:30.576
00:45:24.847 : en:00:45:24.847
00:47:42.318 : en:00:47:42.318
00:50:48.128 : en:00:50:48.128
00:55:26.656 : en:00:55:26.656
00:58:28.547 : en:00:58:28.547
01:03:35.728 : en:01:03:35.728
01:08:58.509 : en:01:08:58.509
01:11:00.131 : en:01:11:00.131
01:16:25.998 : en:01:16:25.998
01:22:32.906 : en:01:22:32.906
01:28:07.323 : en:01:28:07.323
01:33:11.419 : en:01:33:11.419
01:37:02.858 : en:01:37:02.858
01:40:18.429 : en:01:40:18.429
01:47:27.190 : en:01:47:27.190
01:50:45.055 : en:01:50:45.055
01:55:31.382 : en:01:55:31.382
01:59:40.464 : en:01:59:40.464
02:02:28.341 : en:02:02:28.341
02:05:03.662 : en:02:05:03.662




回复下载:





游客,如果您要查看本帖隐藏内容请回复


本帖子中包含更多资源

您需要 登录 才可以下载或查看,没有帐号?立即注册

x
分享到:  QQ好友和群QQ好友和群 QQ空间QQ空间 腾讯微博腾讯微博 腾讯朋友腾讯朋友
收藏收藏
沙发
发表于 3 天前 | 只看该作者
感谢楼主分享
板凳
发表于 3 天前 | 只看该作者
感谢楼主分享
地板
发表于 3 天前 | 只看该作者
感谢搂住的分享
5#
发表于 3 天前 | 只看该作者
辛苦了.谢谢
6#
发表于 3 天前 | 只看该作者
感谢楼主分享
7#
发表于 3 天前 | 只看该作者
感谢楼主分享!
8#
发表于 3 天前 | 只看该作者
谢谢楼主,支持分享!
9#
发表于 3 天前 | 只看该作者


感谢楼主分享
10#
发表于 3 天前 | 只看该作者
感谢楼主分享
您需要登录后才可以回帖 登录 | 立即注册

本版积分规则

快速回复 返回顶部 返回列表
北京pk拾赢彩手机版 北京赛车pk拾冠军杀3码北京赛车pk拾冠军玩法 北京pk拾要怎么抓走势 三分pk拾开奖历史纪录 必赢北京pk拾软件 北京pk拾人工计划群 中国福利彩票pk拾 三分pk拾计划全天计划 聚星pk拾技巧 超神pk拾手机计划软件