CHD高清论坛

 找回密码
 立即注册

QQ登录

只需一步,快速开始

搜索
热搜: 活动 交友 discuz
查看: 43|回复: 15
打印 上一主题 下一主题

[奇幻片] 阿拉丁/阿拉丁真人版。Aladdin。2019。1080p。BluRay。x264-SPARKS

[复制链接]
跳转到指定楼层
楼主
发表于 1 小时前 | 只看该作者 回帖奖励 |倒序浏览 |阅读模式


◎译  名 阿拉丁 / 阿拉丁真人版
◎片  名 Aladdin
◎年  代 2019
◎产  地 美国
◎类  别 爱情 / 歌舞 / 奇幻 / 冒险
◎语  言 英语
◎上映日期 2019-05-24(美国/中国大陆)
◎IMDb评分 7.4/10 from 88756 users
◎IMDb链接
◎豆瓣评分 7.8/10 from 131777 users
◎豆瓣链接 
◎片  长 128分钟
◎导  演 盖·里奇 Guy Ritchie
◎编  剧 盖·里奇 Guy Ritchie / 约翰·奥古斯特 John August
◎主  演 梅纳·玛索德 Mena Massoud
      娜奥米·斯科特 Naomi Scott
      威尔·史密斯 Will Smith
      马尔万·肯扎里 Marwan Kenzari
      纳维德·内加班 Navid Negahban
      纽曼·阿卡 Numan Acar
      艾伦·图代克 Alan Tudyk
      比利·马格努森 Billy Magnussen
      纳西姆·帕杜雷德 Nasim Pedrad
      卡米尔·雷米泽斯基 Kamil Lemieszewski
      乔伊·安沙 Joey Ansah
      贾格·帕特尔 Jag Patel
      贝恩·科拉科 Bern Colla?o
      凯西·克莱尔 Cassie Clare
      威尔·布拉格罗夫 Will Blagrove
      哈廷·帕特尔 Hiten Patel
      阿米尔鲍特罗斯 Amir Boutrous
      埃里克·可可 Eric Coco
      弗兰·塔格 Fran Targ
      阿玛尔·阿达蒂亚 Amar Adatia
      乔丹·A·纳什 Jordan A. Nash
      通恰伊·古奈什 Tuncay Gunes
      塞尔哈特·梅汀 Serhat Metin
      凯文·马塔迪恩 Kevin Matadeen
      保利娜·博内瓦 Paulina Boneva
      塔希尔·布尔汉 Tahir Burhan
      亚当·柯林斯 Adam Collins


◎标  签 迪士尼 | 童话 | 奇幻 | 魔幻 | 爱情 | 音乐 | 美国 | 2019

◎简  介

  在充满异域风情的古代阿拉伯王国,善良的穷小子阿拉丁(莫纳·马苏德 饰)和勇敢的茉莉公主(娜奥米·斯科特 饰)浪漫邂逅,在可以满足主人三个愿望的神灯精灵(威尔·史密斯 饰)的帮助下,两人踏上了一次寻找真爱和自我的魔幻冒险。
Video
ID : 1
Format : AVC
Format/Info : Advanced Video Codec
Format profile : High@L4.1
Format settings : CABAC / 5 Ref Frames
Format settings, CABAC : Yes
Format settings, Reference frames : 5 frames
Codec ID : V_MPEG4/ISO/AVC
Duration : 2 h 7 min
Bit rate : 9 495 kb/s
Width : 1 920 pixels
Height : 808 pixels
Display aspect ratio : 2.40:1
Frame rate mode : Constant
Frame rate : 23.976 (24000/1001) FPS
Color space : YUV
Chroma subsampling : 4:2:0
Bit depth : 8 bits
Scan type : Progressive
Bits/(Pixel*Frame) : 0.255
Stream size : 8.49 GiB (86%)
Writing library : x264 core 158 r2984 3759fcb
Encoding settings : cabac=1 / ref=5 / deblock=1:-3:-3 / analyse=0x3:0x113 / me=umh / subme=8 / psy=1 / psy_rd=1.00:0.00 / mixed_ref=1 / me_range=16 / chroma_me=1 / trellis=1 / 8x8dct=1 / cqm=0 / deadzone=21,11 / fast_pskip=1 / chroma_qp_offset=-2 / threads=25 / lookahead_threads=4 / sliced_threads=0 / nr=0 / decimate=1 / interlaced=0 / bluray_compat=0 / constrained_intra=0 / bframes=3 / b_pyramid=2 / b_adapt=1 / b_bias=0 / direct=3 / weightb=1 / open_gop=0 / weightp=2 / keyint=250 / keyint_min=23 / scenecut=40 / intra_refresh=0 / rc_lookahead=50 / rc=2pass / mbtree=1 / bitrate=9495 / ratetol=1.0 / qcomp=0.60 / qpmin=0 / qpmax=69 / qpstep=4 / cplxblur=20.0 / qblur=0.5 / ip_ratio=1.40 / aq=1:1.00
Language : English
Default : Yes
Forced : No

Audio
ID : 2
Format : DTS
Format/Info : Digital Theater Systems
Codec ID : A_DTS
Duration : 2 h 7 min
Bit rate mode : Constant
Bit rate : 1 509 kb/s
Channel(s) : 6 channels
Channel layout : C L R Ls Rs LFE
Sampling rate : 48.0 kHz
Frame rate : 93.750 FPS (512 SPF)
Bit depth : 24 bits
Compression mode : Lossy
Stream size : 1.35 GiB (14%)
Language : English
Default : Yes
Forced : No




回复下载:





游客,如果您要查看本帖隐藏内容请回复


本帖子中包含更多资源

您需要 登录 才可以下载或查看,没有帐号?立即注册

x
沙发
发表于 1 小时前 | 只看该作者
感谢楼主分享,谢谢好东西啊

板凳
发表于 1 小时前 | 只看该作者
感谢楼主分享一下吧我就知道
地板
发表于 1 小时前 | 只看该作者
感谢楼主分享!!!下来看看
5#
发表于 1 小时前 | 只看该作者
感谢分享,感谢分享,感谢分享
6#
发表于 1 小时前 | 只看该作者
感谢楼主分享
7#
发表于 1 小时前 | 只看该作者
先谢谢分享
8#
发表于 1 小时前 | 只看该作者
谢谢楼主分享
9#
发表于 半小时前 | 只看该作者
谢谢楼主分享
10#
发表于 半小时前 | 只看该作者

谢谢楼主分享
您需要登录后才可以回帖 登录 | 立即注册

本版积分规则

快速回复 返回顶部 返回列表
北京赛车pk拾计划数据 北京赛车pk拾投注平台 极速pk拾 单双技巧 1分钟极速pk拾走势图官网 必赢客北京pk拾准确率 三分pk拾人工计划全天 助赢北京pk拾论坛 破解必赢客北京pk拾 一分钟极速pk拾走势图 北京pk拾开奖记录